Find Torrent

Toy Story 1 [1995] (.avi)

Torrent Description:

                                

Thepiratebay

Toy Story 1 (.avi) *Great Quality 688MB.avi movie ----------------------------------------------------------------------------------- Storyline: --------- A little boy named Andy loves to be in his room, playing with his toys, especially his doll named "Woody". But, what do the toys do when Andy is not with them, they come to life. Woody believes that he has life (as a toy) good. However, he must worry about Andy's family moving, and what Woody does not know is about Andy's birthday party. Woody does not realize that Andy's mother gave him an action figure known as Buzz Lightyear, who does not believe that he is a toy, and quickly becomes Andy's new favorite toy. Woody, who is now consumed with jealousy, tries to get rid of Buzz. Then, both Woody and Buzz are now lost. They must find a way to get back to Andy before he moves without them, but they will have to pass through a ruthless toy killer, Sid Phillips. ----------------------------------------------------------------------------------- Cast: ---- Tom Hanks ... Woody (voice) Tim Allen ... Buzz Lightyear (voice) Don Rickles ... Mr. Potato Head (voice) Jim Varney ... Slinky Dog (voice) Wallace Shawn ... Rex (voice) John Ratzenberger ... Hamm (voice) Annie Potts ... Bo Peep (voice) John Morris ... Andy (voice) Erik von Detten ... Sid (voice) Laurie Metcalf ... Andy's Mom (voice) R. Lee Ermey ... Sergeant (voice) Sarah Freeman ... Hannah (voice) Penn Jillette ... TV Announcer (voice) Jack Angel ... Additional Voice (voice) Spencer Aste ... Additional Voice (voice) ----------------------------------------------------------------------------------- Video Information: ----------------- Format : AVI Format/Info : Audio Video Interleave File size : 689 MiB Duration : 1h 17mn Overall bit rate : 1 245 Kbps Writing application : Nandub v1.0rc2 Writing library : Nandub build 1852/release Video: ----- Format : MPEG-4 Visual Format profile : Simple@L3 Format settings, BVOP : No Format settings, QPel : No Format settings, GMC : No warppoints Format settings, Matrix : Default (H.263) Codec ID : XVID Codec ID/Hint : XviD Duration : 1h 17mn Bit rate : 1 104 Kbps Width : 640 pixels Height : 352 pixels Display aspect ratio : 16:9 Frame rate : 25.000 fps Color space : YUV Chroma subsampling : 4:2:0 Bit depth : 8 bits Scan type : Progressive Bits/(Pixel*Frame) : 0.196 Stream size : 611 MiB (89%) Writing library : XviD 0.0.09 (UTC 2003-03-25) Audio: ----- Format : MPEG Audio Format version : Version 1 Format profile : Layer 3 Mode : Joint stereo Codec ID : 55 Codec ID/Hint : MP3 Duration : 1h 17mn Bit rate mode : Variable Bit rate : 128 Kbps Channel(s) : 2 channels Sampling rate : 48.0 KHz Stream size : 70.8 MiB (10%) Alignment : Aligned on interleaves Interleave, duration : 24 ms (0.60 video frame) Interleave, preload duration : 138 ms Writing library : LAME3.90. ----------------------------------------------------------------------------------- I want to give credit to Anonymous here: http://thepiratebay.org/torrent/5903582/Toy_Story_Triology for Toy Story 1 to go with my Toy Story 2 & 3 and complete my collection. *Remember to seed *HAVE FUN AND ENJOY*

Related torrents: